<?xml version="1.0" encoding="UTF-8" standalone="no"?>
<!-- Created with Inkscape (http://www.inkscape.org/) -->
<svg
   xmlns:svg="http://www.w3.org/2000/svg"
   xmlns="http://www.w3.org/2000/svg"
   version="1.0"
   width="283.46457"
   height="166.53543"
   viewBox="0 0 28000 21000"
   id="svg5768" x="0" y="0">
  <defs
     id="defs5770">
    <font
       id="EmbeddedFont_1"
       horiz-adv-x="2048">
      <font-face
         font-family="Arial embedded"
         units-per-em="2048"
         ascent="1952"
         descent="588"
         id="font-face5773" />
      <missing-glyph
         horiz-adv-x="2048"
         id="missing-glyph5775">
        <path
           style="fill: none; stroke: black; stroke-width: 33;"
           d="M 0,2048 L 2047,2048 2047,1 0,1 0,2048 Z"
           id="path5777" />
      </missing-glyph>
      <glyph
         unicode=" "
         horiz-adv-x="1035"
         id="glyph5779" />
      <glyph
         unicode="1"
         horiz-adv-x="495"
         id="glyph5781">
        <path
           d="M 530,1034 L 530,0 711,0 711,1452 592,1452 C 528,1229 487,1198 209,1163 L 209,1034 530,1034 Z"
           id="path5783" />
      </glyph>
      <glyph
         unicode="2"
         horiz-adv-x="965"
         id="glyph5785">
        <path
           d="M 1036,178 L 272,178 C 291,297 356,373 535,477 L 739,588 C 942,698 1047,848 1047,1026 1047,1147 997,1259 911,1337 825,1415 719,1452 582,1452 397,1452 260,1386 180,1264 129,1186 107,1096 102,948 L 283,948 C 289,1046 301,1106 326,1153 373,1241 467,1294 575,1294 739,1294 862,1178 862,1022 862,907 795,809 666,735 L 477,629 C 174,457 86,319 70,0 L 1036,0 1036,178 Z"
           id="path5787" />
      </glyph>
      <glyph
         unicode="4"
         horiz-adv-x="1035"
         id="glyph5789">
        <path
           d="M 670,348 L 670,0 850,0 850,348 1065,348 1065,510 850,510 850,1452 717,1452 57,539 57,348 670,348 Z M 670,510 L 215,510 670,1145 670,510 Z"
           id="path5791" />
      </glyph>
      <glyph
         unicode="5"
         horiz-adv-x="965"
         id="glyph5793">
        <path
           d="M 975,1452 L 225,1452 117,662 283,662 C 367,762 436,797 549,797 743,797 866,664 866,449 866,240 745,113 549,113 391,113 295,193 252,357 L 72,357 C 96,238 117,180 160,127 242,17 389,-47 553,-47 846,-47 1051,166 1051,473 1051,760 860,957 582,957 479,957 397,930 313,869 L 371,1274 975,1274 975,1452 Z"
           id="path5795" />
      </glyph>
      <glyph
         unicode="="
         horiz-adv-x="1012"
         id="glyph5797">
        <path
           d="M 1094,722 L 102,722 102,579 1094,579 1094,722 Z M 1094,370 L 102,370 102,227 1094,227 1094,370 Z"
           id="path5799" />
      </glyph>
      <glyph
         unicode="C"
         horiz-adv-x="1295"
         id="glyph5801">
        <path
           d="M 1356,1030 C 1296,1358 1108,1518 780,1518 580,1518 418,1454 307,1332 172,1184 98,971 98,729 98,484 174,273 315,127 430,8 578,-47 772,-47 1137,-47 1341,150 1387,545 L 1190,545 C 1174,443 1153,373 1122,314 1061,191 934,121 774,121 477,121 289,359 289,731 289,1114 469,1350 758,1350 879,1350 991,1313 1053,1256 1108,1205 1139,1141 1161,1030 L 1356,1030 Z"
           id="path5803" />
      </glyph>
      <glyph
         unicode="E"
         horiz-adv-x="1083"
         id="glyph5805">
        <path
           d="M 375,680 L 1188,680 1188,848 375,848 375,1325 1219,1325 1219,1493 184,1493 184,0 1255,0 1255,168 375,168 375,680 Z"
           id="path5807" />
      </glyph>
      <glyph
         unicode="F"
         horiz-adv-x="1012"
         id="glyph5809">
        <path
           d="M 375,680 L 1087,680 1087,848 375,848 375,1325 1186,1325 1186,1493 184,1493 184,0 375,0 375,680 Z"
           id="path5811" />
      </glyph>
      <glyph
         unicode="I"
         horiz-adv-x="189"
         id="glyph5813">
        <path
           d="M 397,1493 L 205,1493 205,0 397,0 397,1493 Z"
           id="path5815" />
      </glyph>
      <glyph
         unicode="L"
         horiz-adv-x="941"
         id="glyph5817">
        <path
           d="M 354,1493 L 164,1493 164,0 1092,0 1092,168 354,168 354,1493 Z"
           id="path5819" />
      </glyph>
      <glyph
         unicode="N"
         horiz-adv-x="1153"
         id="glyph5821">
        <path
           d="M 1323,1493 L 1143,1493 1143,272 363,1493 156,1493 156,0 336,0 336,1211 1108,0 1323,0 1323,1493 Z"
           id="path5823" />
      </glyph>
      <glyph
         unicode="O"
         horiz-adv-x="1435"
         id="glyph5825">
        <path
           d="M 797,1518 C 369,1518 78,1203 78,735 78,268 369,-47 799,-47 979,-47 1141,8 1262,111 1423,248 1520,479 1520,723 1520,1205 1235,1518 797,1518 Z M 797,1350 C 1120,1350 1329,1104 1329,727 1329,367 1114,121 799,121 481,121 268,367 268,735 268,1104 481,1350 797,1350 Z"
           id="path5827" />
      </glyph>
      <glyph
         unicode="Q"
         horiz-adv-x="1435"
         id="glyph5829">
        <path
           d="M 1501,-2 L 1309,156 C 1450,311 1520,504 1520,740 1520,1203 1229,1518 799,1518 369,1518 78,1203 78,735 78,268 369,-47 799,-47 946,-47 1069,-14 1190,57 L 1405,-121 1501,-2 Z M 985,420 L 891,305 1042,178 C 954,137 887,121 797,121 479,121 268,367 268,735 268,1104 481,1350 799,1350 1116,1350 1329,1104 1329,738 1329,545 1278,395 1167,270 L 985,420 Z"
           id="path5831" />
      </glyph>
      <glyph
         unicode="S"
         horiz-adv-x="1153"
         id="glyph5833">
        <path
           d="M 1221,1055 C 1219,1348 1018,1518 674,1518 346,1518 143,1350 143,1079 143,897 240,782 436,731 L 807,633 C 995,584 1081,508 1081,391 1081,311 1038,230 975,184 915,143 821,121 700,121 539,121 428,160 356,246 301,311 276,383 279,475 L 98,475 C 100,338 127,248 186,166 289,27 461,-47 688,-47 866,-47 1012,-6 1108,68 1208,148 1272,281 1272,410 1272,594 1157,729 954,785 L 580,885 C 399,934 334,991 334,1106 334,1258 467,1358 668,1358 905,1358 1038,1249 1040,1055 L 1221,1055 Z"
           id="path5835" />
      </glyph>
      <glyph
         unicode="T"
         horiz-adv-x="1177"
         id="glyph5837">
        <path
           d="M 725,1325 L 1214,1325 1214,1493 43,1493 43,1325 535,1325 535,0 725,0 725,1325 Z"
           id="path5839" />
      </glyph>
      <glyph
         unicode="a"
         horiz-adv-x="1012"
         id="glyph5841">
        <path
           d="M 1096,100 C 1077,96 1069,96 1059,96 999,96 967,127 967,180 L 967,811 C 967,1002 827,1104 563,1104 408,1104 279,1059 207,979 158,924 137,862 133,756 L 305,756 C 319,887 397,946 557,946 711,946 797,889 797,787 L 797,741 C 797,670 754,639 619,623 377,592 340,584 274,557 150,506 86,410 86,270 86,76 221,-47 438,-47 573,-47 682,0 803,111 815,2 868,-47 979,-47 1014,-47 1040,-43 1096,-29 L 1096,100 Z M 797,338 C 797,281 780,246 729,199 659,135 575,103 475,103 342,103 264,166 264,275 264,387 340,445 522,471 702,496 739,504 797,531 L 797,338 Z"
           id="path5843" />
      </glyph>
      <glyph
         unicode="c"
         horiz-adv-x="918"
         id="glyph5845">
        <path
           d="M 965,713 C 956,817 934,885 893,944 819,1045 690,1104 541,1104 252,1104 63,875 63,518 63,172 248,-47 539,-47 795,-47 956,107 977,369 L 805,369 C 776,197 688,111 543,111 354,111 242,264 242,518 242,787 352,946 539,946 682,946 772,862 793,713 L 965,713 Z"
           id="path5847" />
      </glyph>
      <glyph
         unicode="d"
         horiz-adv-x="965"
         id="glyph5849">
        <path
           d="M 1014,1493 L 844,1493 844,938 C 772,1047 657,1104 514,1104 236,1104 53,881 53,539 53,176 231,-47 520,-47 668,-47 770,8 862,141 L 862,0 1014,0 1014,1493 Z M 543,944 C 727,944 844,780 844,524 844,277 725,113 545,113 356,113 231,279 231,529 231,778 356,944 543,944 Z"
           id="path5851" />
      </glyph>
      <glyph
         unicode="e"
         horiz-adv-x="965"
         id="glyph5853">
        <path
           d="M 1051,480 C 1051,643 1038,742 1008,822 938,998 774,1104 573,1104 274,1104 82,875 82,522 82,170 268,-47 569,-47 815,-47 985,92 1028,326 L 856,326 C 809,185 713,111 575,111 467,111 375,160 317,250 276,312 262,373 260,480 L 1051,480 Z M 264,619 C 279,817 399,946 571,946 739,946 868,807 868,631 868,627 868,623 866,619 L 264,619 Z"
           id="path5855" />
      </glyph>
      <glyph
         unicode="f"
         horiz-adv-x="518"
         id="glyph5857">
        <path
           d="M 528,1073 L 350,1073 350,1240 C 350,1311 391,1348 469,1348 483,1348 489,1348 528,1348 L 528,1489 C 489,1498 467,1500 432,1500 274,1500 180,1409 180,1256 L 180,1073 37,1073 37,934 180,934 180,0 350,0 350,934 528,934 528,1073 Z"
           id="path5859" />
      </glyph>
      <glyph
         unicode="g"
         horiz-adv-x="918"
         id="glyph5861">
        <path
           d="M 844,1073 L 844,917 C 758,1044 653,1104 516,1104 244,1104 59,866 59,518 59,342 107,198 195,96 274,6 389,-48 502,-48 637,-48 731,10 827,145 L 827,90 C 827,-56 809,-144 766,-203 721,-267 633,-304 528,-304 451,-304 381,-283 334,-246 295,-216 279,-187 268,-123 L 94,-123 C 113,-326 270,-447 522,-447 682,-447 819,-396 889,-310 971,-211 1001,-76 1001,176 L 1001,1073 844,1073 Z M 535,946 C 719,946 827,790 827,522 827,266 717,110 537,110 350,110 238,268 238,528 238,786 352,946 535,946 Z"
           id="path5863" />
      </glyph>
      <glyph
         unicode="h"
         horiz-adv-x="848"
         id="glyph5865">
        <path
           d="M 143,1493 L 143,0 313,0 313,592 C 313,811 428,954 604,954 659,954 715,936 756,905 805,871 825,819 825,744 L 825,0 995,0 995,811 C 995,991 866,1104 657,1104 506,1104 414,1057 313,926 L 313,1493 143,1493 Z"
           id="path5867" />
      </glyph>
      <glyph
         unicode="i"
         horiz-adv-x="166"
         id="glyph5869">
        <path
           d="M 307,1073 L 137,1073 137,0 307,0 307,1073 Z M 307,1493 L 135,1493 135,1278 307,1278 307,1493 Z"
           id="path5871" />
      </glyph>
      <glyph
         unicode="k"
         horiz-adv-x="918"
         id="glyph5873">
        <path
           d="M 289,1493 L 119,1493 119,0 289,0 289,418 455,582 817,0 1028,0 590,703 963,1073 743,1073 289,619 289,1493 Z"
           id="path5875" />
      </glyph>
      <glyph
         unicode="l"
         horiz-adv-x="166"
         id="glyph5877">
        <path
           d="M 311,1493 L 139,1493 139,0 311,0 311,1493 Z"
           id="path5879" />
      </glyph>
      <glyph
         unicode="m"
         horiz-adv-x="1412"
         id="glyph5881">
        <path
           d="M 143,1073 L 143,0 315,0 315,674 C 315,830 428,954 567,954 694,954 766,877 766,739 L 766,0 938,0 938,674 C 938,830 1051,954 1190,954 1315,954 1389,875 1389,739 L 1389,0 1561,0 1561,805 C 1561,997 1450,1104 1249,1104 1106,1104 1020,1061 920,940 856,1055 770,1104 631,1104 487,1104 393,1051 301,922 L 301,1073 143,1073 Z"
           id="path5883" />
      </glyph>
      <glyph
         unicode="n"
         horiz-adv-x="848"
         id="glyph5885">
        <path
           d="M 143,1073 L 143,0 315,0 315,592 C 315,811 430,954 606,954 741,954 827,873 827,744 L 827,0 997,0 997,811 C 997,989 864,1104 657,1104 498,1104 395,1043 301,893 L 301,1073 143,1073 Z"
           id="path5887" />
      </glyph>
      <glyph
         unicode="o"
         horiz-adv-x="965"
         id="glyph5889">
        <path
           d="M 557,1104 C 256,1104 74,889 74,529 74,168 254,-47 559,-47 860,-47 1044,168 1044,520 1044,891 866,1104 557,1104 Z M 559,946 C 752,946 866,789 866,522 866,270 748,111 559,111 369,111 252,268 252,529 252,787 369,946 559,946 Z"
           id="path5891" />
      </glyph>
      <glyph
         unicode="r"
         horiz-adv-x="519"
         id="glyph5893">
        <path
           d="M 141,1073 L 141,0 313,0 313,557 C 313,711 352,811 434,871 487,909 539,922 657,922 L 657,1098 C 629,1102 614,1104 592,1104 481,1104 397,1038 299,879 L 299,1073 141,1073 Z"
           id="path5895" />
      </glyph>
      <glyph
         unicode="s"
         horiz-adv-x="871"
         id="glyph5897">
        <path
           d="M 897,774 C 895,985 756,1104 508,1104 258,1104 96,975 96,776 96,608 182,529 436,467 L 596,428 C 715,399 762,356 762,279 762,178 662,111 512,111 420,111 342,137 299,182 272,213 260,244 250,320 L 70,320 C 78,72 217,-47 498,-47 768,-47 940,86 940,293 940,453 850,541 637,592 L 473,631 C 334,664 274,709 274,784 274,883 363,946 502,946 639,946 713,887 717,774 L 897,774 Z"
           id="path5899" />
      </glyph>
      <glyph
         unicode="t"
         horiz-adv-x="518"
         id="glyph5901">
        <path
           d="M 520,1073 L 344,1073 344,1369 174,1369 174,1073 29,1073 29,934 174,934 174,123 C 174,14 248,-47 381,-47 422,-47 463,-43 520,-33 L 520,111 C 498,105 471,103 438,103 365,103 344,123 344,199 L 344,934 520,934 520,1073 Z"
           id="path5903" />
      </glyph>
      <glyph
         unicode="u"
         horiz-adv-x="848"
         id="glyph5905">
        <path
           d="M 987,0 L 987,1073 817,1073 817,465 C 817,246 702,103 524,103 389,103 303,184 303,313 L 303,1073 133,1073 133,246 C 133,68 266,-47 475,-47 633,-47 733,8 834,150 L 834,0 987,0 Z"
           id="path5907" />
      </glyph>
      <glyph
         unicode="v"
         horiz-adv-x="1012"
         id="glyph5909">
        <path
           d="M 584,0 L 995,1074 803,1074 500,203 213,1074 20,1074 397,0 584,0 Z"
           id="path5911" />
      </glyph>
      <glyph
         unicode="x"
         horiz-adv-x="965"
         id="glyph5913">
        <path
           d="M 598,555 L 958,1073 766,1073 508,684 250,1073 55,1073 414,547 35,0 229,0 502,412 770,0 969,0 598,555 Z"
           id="path5915" />
      </glyph>
      <glyph
         unicode="y"
         horiz-adv-x="965"
         id="glyph5917">
        <path
           d="M 795,1073 L 498,237 223,1073 41,1073 403,-5 338,-175 C 311,-250 272,-279 201,-279 176,-279 147,-275 111,-267 L 111,-420 C 145,-439 180,-447 225,-447 281,-447 340,-429 385,-396 438,-357 469,-312 502,-226 L 979,1073 795,1073 Z"
           id="path5919" />
      </glyph>
      <glyph
         unicode="z"
         horiz-adv-x="895"
         id="glyph5921">
        <path
           d="M 907,1074 L 107,1074 107,924 705,924 63,154 63,0 936,0 936,150 270,150 907,922 907,1074 Z"
           id="path5923" />
      </glyph>
      <glyph
         unicode="°"
         horiz-adv-x="636"
         id="glyph5925">
        <path
           d="M 621,1405 C 449,1405 309,1265 309,1095 309,925 449,784 616,784 791,784 930,921 930,1095 930,1265 791,1405 621,1405 Z M 621,1288 C 727,1288 813,1202 813,1095 813,987 727,901 616,901 514,901 426,989 426,1095 426,1200 514,1288 621,1288 Z"
           id="path5927" />
      </glyph>
    </font>
  </defs>
  <defs
     id="defs5929">
    <font
       id="EmbeddedFont_2"
       horiz-adv-x="2048">
      <font-face
         font-family="StarSymbol embedded"
         units-per-em="2048"
         ascent="1646"
         descent="400"
         id="font-face5932" />
      <missing-glyph
         horiz-adv-x="2048"
         id="missing-glyph5934">
        <path
           style="fill: none; stroke: black; stroke-width: 33;"
           d="M 0,2048 L 2047,2048 2047,1 0,1 0,2048 Z"
           id="path5936" />
      </missing-glyph>
      <glyph
         unicode="–"
         horiz-adv-x="1177"
         id="glyph5938">
        <path
           d="M -4,459 L 1135,459 1135,606 -4,606 -4,459 Z"
           id="path5940" />
      </glyph>
      <glyph
         unicode="●"
         horiz-adv-x="1200"
         id="glyph5942">
        <path
           d="M 813,0 C 632,0 489,54 383,161 276,268 223,411 223,592 223,773 276,916 383,1023 489,1130 632,1184 813,1184 992,1184 1136,1130 1245,1023 1353,916 1407,772 1407,592 1407,412 1353,268 1245,161 1136,54 992,0 813,0 Z"
           id="path5944" />
      </glyph>
    </font>
  </defs>
  <defs
     id="defs5946">
    <font
       id="EmbeddedFont_3"
       horiz-adv-x="2048">
      <font-face
         font-family="Times New Roman embedded"
         units-per-em="2048"
         ascent="1905"
         descent="588"
         id="font-face5949" />
      <missing-glyph
         horiz-adv-x="2048"
         id="missing-glyph5951">
        <path
           style="fill: none; stroke: black; stroke-width: 33;"
           d="M 0,2048 L 2047,2048 2047,1 0,1 0,2048 Z"
           id="path5953" />
      </missing-glyph>
      <glyph
         unicode="1"
         horiz-adv-x="589"
         id="glyph5955">
        <path
           d="M 596,1384 L 227,1198 227,1169 C 252,1180 274,1188 283,1192 319,1206 354,1215 375,1215 418,1215 436,1184 436,1118 L 436,189 C 436,121 420,74 387,55 356,37 328,31 242,31 L 242,0 807,0 807,31 C 645,31 612,51 612,150 L 612,1380 596,1384 Z"
           id="path5957" />
      </glyph>
    </font>
</defs>
</svg>
